Mentes Criminales | Temporada 08 | Capitulos [18/24]



· · · · · · · · · · · · · · · : : | Ficha Técnica | : : · · · · · · · · · · · · · · ·

Título: Mentes Criminales
Título Original: Criminal Minds
Año: 2005
País: USA
Duración: 40 min.
Género: Thriller
Creador: Jeff Davis
Productora: CBS


· · · · · · · · · · · · · · · : : | Reparto | : : · · · · · · · · · · · · · · ·


★ Kirsten Vangsness ★ Mandy Patinkin ★ Thomas Gibson ★ Lola Glaudini ★ A.J. Cook ★ Shemar Moore ★ Matthew Gray Gubler ★ Joe Mantegna ★ Paget Brewster

· · · · · · · · · · · · · · · : : | Sinopsis | : : · · · · · · · · · · · · · · ·

Teleserie que narra las investigaciones de un equipo del FBI que estudian perfiles de las más importantes mentes criminales de los Estados Unidos. Su trabajo es capturar criminales. Su especialidad es pensar como ellos… El Agente Especial Jason Giseon (Mandy Patinkin) y Aaron Hotchner (Thomas Gibson) lideran el equipo de criminalistas de élite, perteneciente al FBI, expertos en analizar las mentes de los criminales. Cada miembro del equipo tiene su especialidad. Así, está Elle Greenway (Lola Glaudini), quien tiene una larga experiencia en delitos sexuales; Derek Morgan (Shemar Moore), especializado en crímenes de carácter obsesivos; el Agente Especial Dr. Spencer Reid (Mathew Gray Gubler), una especie de genio incomprendido cuyas habilidades sociales son tan escasas como elevado es su cociente intelectual; y Jennifer “JJ” Jareau (A.J. Cook), la novata. Con cada caso se esforzarán al máximo hasta dar con las pistas suficientes para poder atrapar a los peores y más peligrosos criminales…




WebSite MENTES CRIMINALES en Cuatro.com
FilmAffinity Mentes criminales (Serie de TV) (2005) – FilmAffinity
IMDB Esprits criminels (TV Series 2005– ) – IMDb
YouTube http://d.megadvd.co/decode.php?h=aHR0cDovL3d3dy55b3V0dWJlLmNvbS92L051ekVYTjl3RldF


· · · · · · · · · · · · · · · : : | Media Info | : : · · · · · · · · · · · · · · ·

Temporada: 08
Nº de Capitulos: 24
Rip: HDiTunes
Formato: 480p
Contenedor: AVI
Audio: Castellano
Tamaño: 600 MB
Rippeo: dsigual
Media Info


código:
General
Format : AVI
Format/Info : Audio Video Interleave
File size : 594 MiB
Duration : 39mn 51s
Overall bit rate : 2 084 Kbps

Video
ID : 0
Format : MPEG-4 Visual
Format profile : Advanced Simple@L5
Format settings, BVOP : 2
Format settings, QPel : No
Format settings, GMC : No warppoints
Format settings, Matrix : Default (H.263)
Codec ID : XVID
Codec ID/Hint : XviD
Duration : 39mn 51s
Bit rate : 1 750 Kbps
Width : 720 pixels
Height : 406 pixels
Display aspect ratio : 16:9
Frame rate : 25.000 fps
Color space : YUV
Chroma subsampling : 4:2:0
Bit depth : 8 bits
Scan type : Progressive
Compression mode : Lossy
Bits/(Pixel*Frame) : 0.239
Stream size : 499 MiB (84%)
Writing library : XviD 1.2.1 (UTC 2008-12-04)

Audio #1
ID : 1
Format : MPEG Audio
Format version : Version 1
Format profile : Layer 3
Mode : Joint stereo
Mode extension : MS Stereo
Codec ID : 55
Codec ID/Hint : MP3
Duration : 39mn 51s
Bit rate mode : Constant
Bit rate : 160 Kbps
Channel(s) : 2 channels
Sampling rate : 48.0 KHz
Compression mode : Lossy
Delay relative to video : 2ms
Stream size : 45.6 MiB (8%)
Alignment : Split accross interleaves
Interleave, duration : 40 ms (1.00 video frame)
Interleave, preload duration : 500 ms
Writing library : LAME3.98.4

Audio #2
ID : 2
Format : MPEG Audio
Format version : Version 1
Format profile : Layer 3
Mode : Joint stereo
Mode extension : MS Stereo
Codec ID : 55
Codec ID/Hint : MP3
Duration : 39mn 50s
Bit rate mode : Constant
Bit rate : 160 Kbps
Channel(s) : 2 channels
Sampling rate : 48.0 KHz
Compression mode : Lossy
Stream size : 45.6 MiB (8%)
Alignment : Split accross interleaves
Interleave, duration : 40 ms (1.00 video frame)
Interleave, preload duration : 499 ms
Writing library : LAME3.99r
Encoding settings : -m j -V 4 -q 2 -lowpass 17.5 -b 160


· · · · · · · · · · · · · · · : : | Links | : : · · · · · · · · · · · · · · ·

Share-Links.biz
· · · · · · · · · · · · · · · · · · · · · · · · · · · · · · · · · · · · · · · · · ·

Visita mi Perfil para ver MI CATALOGO de Series | Temporadas en Defición Estándar y Alta Definición