ese es mi hijo español latino DVDRip 1 link voces español

ese es mi hijo español latino DVDRip 1 link voces español


ese es mi hijo español latino DVDRip 1 link voces español descargar full HD, 1 link, descarga directa, torrent, MEGA, mf, rmvb, 1080p, subtitulos, dvdrip






Siendo aún adolescente, Donny (Adam Sandler) tuvo un hijo, Todd (Andy Samberg), y lo crio como un padre soltero hasta el cumpleaños 18 de Todd. Ahora, después de no verse en varios años, el mundo de Todd se viene abajo en la víspera de su matrimonio, cuando Donny reaparece por sorpresa. Tratando desesperadamente de conectar con su hijo, Donny se ve oblicado a lidiar con las repercusiones de su pobre trabajo como padre.





Título: Desmadre de padre
Título original: That’s My Boy
País: USA
Estreno en USA: 15/06/2012
Estreno en España: 31/08/2012
Lanzamiento en DVD (alquiler): 21/12/2012
Estreno en DVD (venta): 15/01/2013
Estreno en Blu-ray: 15/01/2013
Productora: Columbia Pictures (Sony), Happy Madison
Director: Sean Anders, John Morris
Guión: David Caspe, David Wain & Ken Marino
Reparto: Adam Sandler, Leighton Meester, Susan Sarandon, James Caan, Milo Ventimiglia, Andy Samberg, Eva Amurri Martino, Will Forte, Blake Clark, Ian Ziering, Todd Bridges, Dana Goodman, Ciara, Colin Quinn, Meagen Fay
Calificación: No recomendada para menores de 18 años






Complete name: C:\ESE.ES.MI.HIJO.LAT.avi
Format : AVI
Format/Info: Audio Video Interleave
File size : 760 MiB
Duration: 1h 56mn
Overall bit rate: 915 Kbps
Writing application: Lavf52.57.1

Video
ID : 0
Format : xvid
Codec ID: xvid
Duration : 1h 56mn
Bit rate: 678 Kbps
Width: 680 pixels
Height: 340 pixels
Display aspect ratio : 2.000
Frame rate: 23.976 fps
Bits/(Pixel*Frame): 0.122
Stream size : 563 MiB (74%)

Audio
ID: 1
Format: MPEG Audio
Format version: Version 1
Format profile: Layer 3
Mode: Joint stereo
Codec ID : 55
Codec ID/Hint : MP3
Duration : 1h 56mn
Bit rate mode : Constant
Bit rate: 224 Kbps
Channel(s): 2 channels
Sampling rate : 48.0 KHz
Compression mode: Lossy
Stream size: 186 MiB (24%)
Alignment : Aligned on interleaves
Interleave, duration: 24 ms (0.58 video frame)




http://***********.net/download/00987.0…hijo_.rar.html
ese es mi hijo español latino DVDRip 1 link voces español descargar full HD, 1 link, descarga directa, torrent, MEGA, mf, rmvb, 1080p, subtitulos, dvdrip


Leave a reply