Jurassic Park (1993) 3D SBS, BDRip 1080p, Español Latino 5.1/Ingles DTS, Descargar Gratis dvdrip

Jurassic Park (1993) 3D SBS, BDRip 1080p, Español Latino 5.1/Ingles DTS, Descargar Gratis dvdrip


Jurassic Park (1993) 3D SBS, BDRip 1080p, Español Latino 5.1/Ingles DTS, Descargar Gratis dvdrip descargar gratis, 1 link, full HD, dvdrip, castellano, español latino, torrent, rmvb, mediafire, mf, rapidshare






El multimillonario John Hammond consigue hacer realidad su sueño de clonar dinosaurios del Jurásico y crear con ellos un parque temático en una isla remota. Antes de abrirlo al público, invita a una pareja de eminentes científicos y a un matemático para que comprueben la viabilidad del proyecto. Pero las medidas de seguridad del parque no prevén el instinto de supervivencia de la madre naturaleza ni la codicia humana.



Título original: Jurassic Park
Año: 1993
Duración: 120 min.
País: Estados Unidos
Director: Steven Spielberg
Guión: David Koepp & Michael Crichton (Novela: Michael Crichton)
Música: John Williams
Fotografía: Dean Cundey
Reparto: Sam Neill, Laura Dern, Jeff Goldblum, Richard Attenborough, Ariana Richards, Joseph Mazzello, Wayne Knight, Samuel L. Jackson, Bob Peck, Martin Ferrero, B.D. Wong, Miguel Sandoval, Gerald R. Molen
Productora: Universal Pictures/ Amblin Entertainment
Género: Ciencia ficción. Aventuras. Thriller | Dinosaurios





Código:
General
Unique ID : 243522276645546802519706108399814390649 (0xB734AF398993450586B1B15BEED73379)
Complete name : F:\NLR2-SENG-4\Audios.For.Jurassic.Park.3D.1993.1080p.BluRay.Half-OU.DTS.x264-HDMaNiAcS\Jurassic Park 3D 1993 1080P 3D SBS Latino By Chamako.mkv
Format : Matroska
Format version : Version 2
File size : 12.6 GiB
Duration : 2h 6mn
Overall bit rate : 14.2 Mbps
Movie name : www.Chamako.Net – Jurassic Park 1993 3D SBS 1080P Latino
Encoded date : UTC 2013-04-17 22:06:33
Writing application : mkvmerge v3.4.0 (‘Rapunzel’) built on May 15 2010 09:38:20
Writing library : libebml v0.8.0 + libmatroska v0.9.0

Video
ID : 1
Format : AVC
Format/Info : Advanced Video Codec
Format profile : [email protected]
Format settings, CABAC : Yes
Format settings, ReFrames : 3 frames
Codec ID : V_MPEG4/ISO/AVC
Duration : 2h 6mn
Bit rate : 12.0 Mbps
Width : 1 920 pixels
Height : 1 036 pixels
Display aspect ratio : 1.85:1
Frame rate mode : Constant
Frame rate : 23.976 fps
Color space : YUV
Chroma subsampling : 4:2:0
Bit depth : 8 bits
Scan type : Progressive
Bits/(Pixel*Frame) : 0.252
Stream size : 10.6 GiB (85%)
Title : www.Chamako.Net – Jurassic Park 1993
Writing library : x264 core
Default : Yes
Forced : No
Color primaries : BT.709
Transfer characteristics : BT.709
Matrix coefficients : BT.709

Audio #1
ID : 2
Format : AC-3
Format/Info : Audio Coding 3
Mode extension : CM (complete main)
Format settings, Endianness : Big
Codec ID : A_AC3
Duration : 2h 6mn
Bit rate mode : Constant
Bit rate : 384 Kbps
Channel(s) : 6 channels
Channel positions : Front: L C R, Side: L R, LFE
Sampling rate : 48.0 KHz
Bit depth : 16 bits
Compression mode : Lossy
Stream size : 348 MiB (3%)
Title : www.Chamako.Net – Latino 5.1
Language : Spanish
Default : No
Forced : Yes

Audio #2
ID : 3
Format : DTS
Format/Info : Digital Theater Systems
Mode : 16
Format settings, Endianness : Big
Codec ID : A_DTS
Duration : 2h 6mn
Bit rate mode : Constant
Bit rate : 1 509 Kbps
Channel(s) : 6 channels
Channel positions : Front: L C R, Side: L R, LFE
Sampling rate : 48.0 KHz
Bit depth : 24 bits
Compression mode : Lossy
Stream size : 1.34 GiB (11%)
Title : www.Chamako.Net – Jurassic Park 1993 – English DTS
Language : English
Default : No
Forced : No

Menu
00:00:00.000 : en:(01)00:00:00:000
00:05:22.196 : en:(02)00:05:22:196
00:10:17.116 : en:(03)00:10:17:116
00:15:19.418 : en:(04)00:15:19:418
00:19:35.591 : en:(05)00:19:35:591
00:23:49.177 : en:(06)00:23:49:177
00:31:42.525 : en:(07)00:31:42:525
00:38:01.570 : en:(08)00:38:01:570
00:40:29.051 : en:(09)00:40:29:051
00:55:30.410 : en:(10)00:55:30:410
01:01:45.618 : en:(11)01:01:45:618
01:10:46.492 : en:(12)01:10:46:492
01:20:03.507 : en:(13)01:20:03:507
01:34:06.349 : en:(14)01:34:06:349
01:39:47.690 : en:(15)01:39:47:690
01:43:45.552 : en:(16)01:43:45:552
01:47:59.222 : en:(17)01:47:59:222
01:54:47.755 : en:(18)01:54:47:755
01:58:06.788 : en:(19)01:58:06:788
01:59:58.357 : en:(20)01:59:58:357
02:06:48.851 : en:(21)02:06:48:851










2 ARCHIVO DE RECUPERACIÓN
Añadir el link al Jdownloader o MiPony, y empieza a descargar del host que mas te agrade
2 SERVIDORES DISPONIBLES

Jurassic Park (1993) [3D SBS][BDRip 1080p][Español Latino 5.1/Ingles DTS]

CONTRASEÑA: chamako (todo minusculas)

Si Algun link cae solo enviame un MP con el link del post y lo resubiré

Jurassic Park (1993) 3D SBS, BDRip 1080p, Español Latino 5.1/Ingles DTS, Descargar Gratis dvdrip descargar gratis, 1 link, full HD, dvdrip, castellano, español latino, torrent, rmvb, mediafire, mf, rapidshare


Leave a reply